Torrent ID# 51FF27609B7BD24C58F42FA18EFFC3085FD4E328
Added 2015-06-14 06:46:20   
Size 1.69 GiB in 4 files
Category Video > Movies

Twenty-two years after the events of Jurassic Park, Isla Nublar now features a fully functioning dinosaur theme park, Jurassic World, as originally envisioned by John Hammond. After 10 years of operation and visitor rates declining, in order to fulfill a corporate mandate, a new attraction is created to re-spark visitor's interest, which backfires horribly.

Director: Colin Trevorrow
Writers: Rick Jaffa (screenplay), Amanda Silver (screenplay)
Stars: Chris Pratt, Bryce Dallas Howard, Ty Simpkins 
Genres: Action | Adventure | Sci-Fi | Thriller
Country: USA | China
Language: English


Thx Hive

CM8 Doing It Right The First Time


Video: Spanish HDCAM Thx no special mystery vobs here folks or source from a "friend" :lol:
Audio: Sweet Line Big Thx to S4NDM4N
which is marked btw so none of this new line audio crap yes im looking at you


1 Day after Cinedate,a perfect release, beat that, lol
got that great cam last night, was good to begin with, and a perfect line

This great movie deserves nothing less than a good video and good audio track to enjoy
daylight and nightscenes are shot perfectly, also in fast action scenes all is running as it should


Video needed some perspective fixing, added brightness,contrast,fixed colours, removed slight pulsating flicker, its perfect now

for the Audio i got some very nice line, it is damned perfect
cleaned it my usual way and lipsynced it to my video
thx m8 you did a great job on this audio, i do hope we see/hear more from you in the future!!!

got very nice
this will do me till retail


two things i want to add already are:
Video is complete, nothing was cut out or is missing, rolling endcredits werent cammed hence runtime 9mins shorter than imdb
for the RatingLovers i would say Video 8/10 Audio 10/10
it wont get better than this but you are quite welcome to wait for the wannabe to do it

Video: 720x384 @bitrate 1800 2pass
Audio: Line AC3 Stereo 2.0
Sample: yes

Complete name: Jurassic.World.2015.HD-TS.XVID.AC3.HQ.Hive-CM8.avi
Format: AVI
Format/Info: Audio Video Interleave
File size: 1.67 GiB
Duration: 1h 55mn
Overall bit rate: 2 065 Kbps
Writing application: Nandub v1.0rc2
Writing library: Nandub build 1853/release

ID: 0
Format: MPEG-4 Visual
Format profile: Advanced [email protected]
Format settings, BVOP: 2
Format settings, QPel: Yes
Format settings, GMC: No warppoints
Format settings, Matrix: Default (H.263)
Muxing mode: Packed bitstream
Codec ID: XVID
Codec ID/Hint: XviD
Duration: 1h 55mn
Bit rate: 1 800 Kbps
Width: 720 pixels
Height: 384 pixels
Display aspect ratio: 1.85:1
Frame rate: 25.000 fps
Color space: YUV
Chroma subsampling: 4:2:0
Bit depth: 8 bits
Scan type: Progressive
Compression mode: Lossy
Bits/(Pixel*Frame): 0.260
Stream size: 1.45 GiB (87%)
Writing library: XviD 1.2.1 (UTC 2008-12-04)

ID: 1
Format: AC-3
Format/Info: Audio Coding 3
Mode extension: CM (complete main)
Format settings, Endianness: Big
Codec ID: 2000
Duration: 1h 55mn
Bit rate mode: Constant
Bit rate: 256 Kbps
Channel(s): 2 channels
Channel positions: Front: L R
Sampling rate: 48.0 KHz
Bit depth: 16 bits
Compression mode: Lossy
Stream size: 212 MiB (12%)
Alignment: Split accross interleaves
Interleave, duration: 40 ms (1.00 video frame)
Interleave, preload duration: 500 ms